#TITLE:You're Already Gone;
#SUBTITLE:;
#ARTIST:Audition;
#TITLETRANSLIT:You're Already Gone;
#SUBTITLETRANSLIT:;
#ARTISTTRANSLIT:Audition;
#CREDIT:;
#BANNER:You're Already Gone-bn.png;
#BACKGROUND:You're Already Gone-bg.png;
#LYRICSPATH:;
#CDTITLE:pm4cd.png;
#MUSIC:You're Already Gone.mp3;
#OFFSET:-0.620;
#SAMPLESTART:43.810;
#SAMPLELENGTH:20.000;
#SELECTABLE:YES;
#BPMS:0.000=149.960;
#STOPS:;
#BGCHANGES:;
// cache tags:
#FIRSTBEAT:8.000;
#LASTBEAT:560.500;
#SONGFILENAME:Songs/Music V.I.P ^_^/You're Already Gone/You're Already Gone.sm;
#HASMUSIC:1;
#HASBANNER:1;
#MUSICLENGTH:225.504;
// end cache tags

//---------------dance-single - ----------------
#NOTES:
     dance-single:
     :
     Hard:
     16:
     1.000,1.000,1.000,0.044,1.000,1733.000,312.000,10.000,0.000,60.000:
0000
0000
0000
0000
,
0000
0000
0000
0000
,
1101
0010
0001
0010
0100
1000
0100
0010
,
0001
0100
0010
1000
0010
0100
0001
0010
,
0100
1000
0100
0010
0001
0010
0100
1000
,
0100
0010
0001
0010
0100
1000
0100
0010
,
0001
0010
0100
1000
0100
0010
0001
0010
,
0100
1000
0001
0010
0100
1000
0100
0010
,
0001
1000
0100
0010
0001
0010
0100
1000
,
0001
0010
0100
1000
0100
0010
0001
0010
,
1111
0001
1000
0100
1001
0010
0100
0010
,
0101
1000
0100
0010
1100
0010
0001
0010
,
1111
0010
0001
0010
0101
1000
0100
0010
,
1100
0001
0010
0100
0011
1000
0010
1101
,
1111
0010
0100
0001
1010
0100
0010
1000
,
0101
1000
0001
0100
1010
0001
0100
1011
,
1111
1000
0100
0010
0101
0010
1000
0111
,
1011
0100
1000
0100
0010
0001
0010
0100
1000
0100
0010
0001
0010
0100
1000
0100
,
1011
0100
0011
1000
0101
0001
1001
0100
,
0110
1000
0101
0001
1100
0100
0011
0100
,
1010
1000
1001
0010
0110
1000
1010
0001
,
0101
0010
1100
0010
0101
1000
0011
0100
,
0101
1000
1100
0010
0101
1000
0011
0100
,
1010
0001
1100
0010
0101
1000
0011
0100
,
0101
1000
0110
0010
1010
0100
0101
1000
,
1100
0001
0011
0100
0101
0010
1001
0010
,
1100
0010
0001
0100
0010
0001
1000
0100
0010
0100
0010
0001
1000
0100
0010
0100
,
0010
1000
0001
0010
0100
1000
0100
0010
0001
0010
0100
1000
0010
0100
0010
0001
,
0010
1000
0100
0010
0100
0010
0001
1000
0100
0010
0001
0010
0100
1000
0100
0010
,
0001
0100
0010
1000
0001
0100
0010
1000
0001
0010
0001
0100
0010
0100
0001
0010
,
0100
1000
0100
0001
0010
0100
0010
1000
0001
0100
0010
1000
0100
1000
0010
0100
,
0001
0100
0010
1000
0001
0010
0100
1000
0001
0100
0001
1000
0010
1000
0001
1000
,
0100
0010
0100
0001
0010
0100
1000
0010
0100
0001
0010
0100
0010
0001
1000
0100
,
0010
0100
0010
1000
0001
0010
0100
0010
1000
0100
0001
0010
0100
1000
0010
0001
,
0010
0100
0001
1000
0100
1000
0100
0010
0001
0100
0010
1000
0010
0100
0001
1000
,
0010
0100
0001
1000
0010
0100
1000
0010
0100
0010
0001
1000
0100
1000
0100
0001
,
0010
0001
0010
1000
0010
0100
0010
0100
0001
1000
0001
1000
0100
0010
0001
0010
,
0100
1000
0010
0100
0001
0010
0100
0010
0100
1000
0010
0100
0001
0010
0100
1000
,
0010
0100
1000
0010
0100
0010
0001
0010
1000
0100
0010
0001
0100
0010
1000
0001
,
0100
1000
0010
0001
0100
1000
0100
0001
0010
0001
0010
0100
1000
0010
0100
0010
,
0100
0010
0001
0010
0100
1000
0010
0100
0001
0010
1000
0100
0001
0010
0001
0100
,
1000
0100
0010
0001
0010
0100
1000
0100
0010
0100
0010
0001
0010
0100
1000
0010
,
0200
1000
0010
0001
0010
1000
0010
0001
,
0010
1000
0010
0001
0010
1000
0010
0001
,
1311
0100
0101
0010
0011
1000
1100
0010
,
0101
1000
0011
0100
1001
0010
0110
1000
,
1010
0100
0101
0010
1100
0010
0101
1000
,
0011
0100
1010
0001
0101
1000
0011
0100
,
1100
1000
0101
0010
1001
0100
0101
0010
,
1010
1000
1100
0001
0101
0010
1010
0100
,
0011
0100
0101
0010
1010
0100
1100
0010
,
0011
0001
1001
1000
1100
0010
0101
1000
,
0110
0001
0010
0100
1000
0100
0010
0001
,
0010
0100
1000
0100
0010
0001
0010
0100
,
1001
0010
0100
1000
0100
0010
0001
0010
,
1001
0100
0010
0001
0010
0100
1000
0100
,
1011
0100
0101
0010
0011
1000
1100
0010
,
0101
1000
0011
0100
1001
0010
1100
0001
,
1010
0100
1001
0010
1010
0100
0101
0001
,
0011
1000
1010
0001
1100
0010
0101
0010
,
0111
1000
0100
1000
0001
0010
0100
1000
0010
0100
0010
0001
0100
0010
1000
0010
,
0001
0010
0100
0001
0100
1000
0100
0010
0100
0001
0010
0100
1000
0100
0010
0100
,
0010
0001
1000
0100
0001
0010
0100
1000
0001
0010
0001
1000
0100
0001
0100
1000
,
0010
0001
0010
1000
0100
1000
0010
0100
0010
1000
0010
0001
0100
1000
0100
0001
,
0010
0001
1000
0100
1000
0100
0010
0001
0010
0001
0010
0100
1000
0010
0100
0001
,
0010
1000
0100
0001
0100
0010
1000
0010
0100
0001
0100
0010
0001
1000
0100
0010
,
0100
1000
0001
0010
0100
0010
0001
1000
0100
0010
0001
0010
0100
1000
0001
0010
,
0100
1000
0100
0010
0001
0100
0010
1000
0010
0100
0001
0100
1000
0010
0001
0100
,
0010
0001
0010
0100
1000
0001
0100
0010
1000
0010
0100
0001
1000
0010
0100
1000
,
0010
0100
0010
0001
0100
1000
0100
0001
0010
0100
1000
0010
0001
0010
1000
0100
,
0010
0001
0100
0010
1000
0010
0100
0001
0010
0100
0010
0001
1000
0100
0010
0100
,
0010
0100
1000
0001
0010
0100
0010
0100
0010
0001
1000
0100
0010
1000
0010
0100
,
1000
0001
0010
0100
0001
0100
0010
0001
1000
0100
0010
0001
0010
1000
0010
0100
,
0010
0001
0010
0100
1000
0001
0010
1000
0100
0001
1000
0100
0010
1000
0001
0100
,
0010
0100
1000
0010
0100
0001
1000
0001
0100
0010
0100
1000
0100
0010
0001
0010
,
0100
1000
0100
1000
0100
1000
0100
0010
0001
0010
0001
0010
0001
0010
0100
1000
,
0111
1000
1010
0001
0101
0010
0011
0100
,
1100
0010
0001
0010
0100
1000
0100
0010
0001
0010
0100
1000
0100
0010
0001
0010
,
1100
0000
0001
0010
1101
0000
0001
0010
1100
0000
0001
0010
1100
0000
0001
0010
,
1100
0000
0001
0010
1100
0000
1000
0100
0011
0000
1000
0100
0011
0000
1000
0100
,
0011
0000
1000
0100
0011
0000
1000
0100
0011
0000
0001
0100
1010
0000
0001
0100
,
1010
0000
0001
0100
1010
0000
0001
0100
1010
0000
0001
0100
1010
0000
1000
0010
,
0101
0000
1000
0010
0101
0000
1000
0010
0101
0000
1000
0010
0101
0000
1000
0010
,
0101
0000
0010
0001
1100
0000
0010
0001
1100
0000
0010
0001
1100
0000
0010
0001
,
1100
0000
0010
0001
1100
0000
0100
1000
0011
0000
0100
1000
0011
0000
0100
1000
,
0011
0000
0100
1000
0011
0000
0100
1000
0011
0000
0001
0010
0101
0000
0001
0010
,
0101
0000
0001
0010
0101
0000
0001
0010
0101
0000
0001
0010
0101
0000
1000
0100
,
1010
0000
1000
0100
1010
0000
1000
0100
1010
0000
1000
0100
1010
0000
1000
0100
,
1010
0000
0001
0010
1001
0000
0001
0010
1001
0000
0001
0010
1001
0000
0001
0010
,
1001
0000
0001
0010
1001
0000
1000
0100
1001
0000
1000
0100
1001
0000
1000
0100
,
1001
0000
1000
0100
1001
0000
1000
0100
1001
0000
1000
0010
1100
0000
1000
0010
,
1100
0000
1000
0010
1100
0000
1000
0010
1100
0000
1000
0010
1100
0000
0001
0100
,
0011
0000
0001
0100
0011
0000
0001
0100
0011
0000
0001
0100
0011
0000
0001
0100
,
0011
0000
1000
0100
0011
0000
0001
0010
1100
0000
1000
0100
0011
0000
0001
0010
,
1101
0010
0101
1000
1001
0010
1010
0100
,
0011
1000
0101
0001
0011
1000
0110
0001
,
1101
0010
1001
0010
1100
0001
1010
0100
,
0011
1000
0101
0010
1001
0100
0011
1110
,
0111
1000
1010
0100
0011
0001
1001
0010
,
1100
0001
1010
0100
0011
1000
0101
1011
,
1101
0010
0001
0010
0101
1000
0100
0010
1001
0010
0100
1000
0101
0010
1101
0010
,
1101
0010
0001
0010
1100
0010
0001
0010
1100
0010
0001
0010
1100
0010
0001
0010
,
1101
0010
0100
0010
0101
1000
0100
1000
0011
0100
0010
1000
0101
0010
0100
0001
,
1010
0100
0010
0001
1100
0010
0100
0001
1100
0010
1000
0010
0101
0010
1000
0100
,
1001
0010
1000
0001
0110
0001
0010
0100
1010
0001
1000
0100
0011
0100
0001
0010
,
0101
1000
0010
0100
1001
0010
0100
1000
0110
0001
0010
0100
0011
1000
0100
0010
,
1001
0010
0100
1000
0101
0010
0100
1000
0101
0010
0001
0100
1001
0010
0100
0001
,
0110
1000
0001
0010
0101
1000
0010
0100
1001
0010
1000
0100
1010
0001
1000
0100
,
0011
0100
0010
1000
0101
0010
0100
0010
1001
0100
0010
0100
0011
1000
0100
0010
,
1100
0001
0010
0001
1010
0100
1000
0010
1100
0010
0001
1000
0011
0100
0010
0100
,
1001
0100
0001
1000
0110
1000
0001
0010
0101
1000
0100
0010
1001
0100
0010
1000
,
0101
0010
0100
0010
0101
1000
0010
0100
0011
1000
0001
0010
1100
0010
0100
1000
,
0101
0010
0100
1000
0101
0010
0001
0100
0011
1000
0001
0010
1100
0010
0001
1000
,
0101
0010
0100
0010
1001
0010
0100
0010
0101
1000
0100
0010
0101
1000
0001
0010
,
1001
0100
0010
0100
1001
0010
1000
0100
0011
1000
0100
0010
1100
0001
0010
0100
,
1010
0001
0100
0010
1001
0100
0010
0001
1100
0010
0100
1000
0011
0100
0010
0001
,
1010
0100
0010
0100
0011
0100
1000
0100
1010
0001
0010
0100
1001
0010
0100
0010
,
0101
0010
0100
1000
0011
0100
0001
0010
0101
1000
0100
0010
1100
0010
0100
1000
,
0021
0100
1000
0100
0001
0100
1000
0001
0100
0001
0100
1000
0100
1000
0100
0001
,
1000
0100
0001
0100
1000
0001
0100
0001
1000
0100
1000
0001
0100
1000
0100
1000
,
0132
1000
0100
0010
0100
1000
0010
0100
1000
0100
0010
1000
0010
0100
0010
1000
,
0100
1000
0010
0100
1000
0100
0010
0100
0010
0100
1000
0100
0010
0100
1000
0010
,
2103
0010
0001
0010
0001
0100
0010
0100
0001
0100
0010
0001
0010
0100
0010
0001
,
0100
0010
0100
0001
0010
0100
0001
0100
0001
0010
0100
0001
0010
0100
0010
0001
,
3120
0001
0100
1000
0100
0001
1000
0100
1000
0100
0001
0100
0001
1000
0100
0001
,
0100
1000
0100
1000
0001
0100
1000
0001
1000
0100
0001
0100
1000
0100
0031
0100
,
2011
0100
0001
0010
0101
0010
0001
0100
0011
0100
0010
0001
0110
0001
0100
0010
,
0101
0010
0100
0001
0110
0001
0100
0010
3101
0010
0100
1000
0011
0100
1000
0001
,
1210
0001
0010
1000
0011
1000
0010
0001
1010
0001
0010
0001
1010
0001
1000
0010
,
1001
0010
0001
1000
0011
1000
0010
1000
0311
1000
0100
0010
0101
0010
0001
0100
,
1021
0100
0001
0100
1001
0100
1000
0001
1100
0001
0100
1000
0101
1000
0100
0001
,
1100
0001
1000
0100
1001
0100
1000
0001
1130
0001
0010
0100
1010
0001
0100
0010
,
1102
0010
1000
0100
1010
0100
1000
0010
1100
0010
0100
1000
0110
1000
0100
0010
,
1100
0010
1000
0100
1010
0100
1000
0010
1100
0010
1000
0100
1010
0100
0010
1000
,
0113
0010
0001
0010
0100
1000
0100
1011
,
1101
0010
1000
0010
0100
0001
0010
1000
,
0111
0000
1000
0100
0010
0001
1000
0100
0010
0001
1000
0100
0010
0001
0001
0010
,
0100
1000
0001
0010
0100
1000
0001
0010
0100
1000
1000
0100
0010
0001
1000
0100
,
0010
0001
1000
0100
0010
0001
0001
0010
0100
1000
0001
0010
0100
1000
0001
0010
,
0100
1000
1000
0100
0010
0002
0000
0000
0000
0000
0000
0000
0000
0000
0000
0000
,
0000
0003
0000
0000
0000
0000
0000
0000
;

//---------------dance-single - ----------------
#NOTES:
     dance-single:
     :
     Medium:
     1:
     0.000,0.000,0.000,0.000,0.000,0.000,0.000,0.000,0.000,0.000:
0000
0000
0000
0000
;

//---------------dance-single - ----------------
#NOTES:
     dance-single:
     :
     Easy:
     1:
     0.000,0.000,0.000,0.000,0.000,0.000,0.000,0.000,0.000,0.000:
0000
0000
0000
0000
;
